Fleetwood Mac - Fleetwood Mac (1975) (PBTHAL LP 24-96) [FLAC] vtwin88cube

seeders: 45
leechers: 15
updated:
Added by vtwin88cube2 in Music > Lossless

Download Fast Safe Anonymous
movies, software, shows...
  • Downloads: 256
  • Language: English

Files

Fleetwood Mac - Fleetwood Mac (1975) (PBTHAL LP 24-96) [FLAC] vtwin88cube
  • 00.-Fleetwood Mac - Fleetwood Mac.m3u (0.2 KB)
  • 01.-Monday Morning.flac (57.3 MB)
  • 02.-Warm Ways.flac (75.9 MB)
  • 03.-Blue Letter.flac (53.8 MB)
  • 04.-Rhiannon.flac (81.8 MB)
  • 05.-Over My Head.flac (70.5 MB)
  • 06.-Crystal.flac (95.5 MB)
  • 07.-Say You Love Me.flac (85.6 MB)
  • 08.-Landslide.flac (63.1 MB)
  • 09.-World Turning.flac (88.0 MB)
  • 10.-Sugar Daddy.flac (82.4 MB)
  • 11.-I'm So Afraid.flac (84.5 MB)
  • DR13.txt (1.4 KB)
  • folder.jpg (146.2 KB)
  • lineage.txt (0.5 KB)

Description

Fleetwood Mac
Fleetwood Mac (1975)
FLAC LOSSLESS 24bit-96kHz
PBTHAL Vinyl Rip


allmusic.com...

It's unfair to say that Fleetwood Mac had no pop pretensions prior to the addition of Lindsey Buckingham and Stevie Nicks to the lineup in 1975. When they were led by Bob Welch they often flirted with pop, even recording the first version of the unabashedly smooth and sappy "Sentimental Lady," which would later be one of the defining soft rock hits of the late '70s. Still, there's no denying that 1975's Fleetwood Mac represents not just the rebirth of the band, but in effect a second debut for the group -- the introduction of a band that would dominate the sound of American and British mainstream pop for the next seven years.


foobar2000 1.4.3 / Dynamic Range Meter 1.1.1
log date: 2020-11-19 08:37:40

--------------------------------------------------------------------------------
Analyzed: Fleetwood Mac / Fleetwood Mac
--------------------------------------------------------------------------------

DR Peak RMS Duration Track
--------------------------------------------------------------------------------
DR13 -0.70 dB -15.79 dB 2:48 01-Monday Morning
DR14 -2.54 dB -19.28 dB 3:54 02-Warm Ways
DR13 -1.20 dB -16.80 dB 2:39 03-Blue Letter
DR13 -1.52 dB -16.40 dB 4:12 04-Rhiannon
DR13 -4.53 dB -19.58 dB 3:35 05-Over My Head
DR15 -1.11 dB -21.88 dB 5:12 06-Crystal
DR13 -1.09 dB -16.24 dB 4:11 07-Say You Love Me
DR12 -5.26 dB -20.43 dB 3:18 08-Landslide
DR13 -1.34 dB -18.64 dB 4:24 09-World Turning
DR15 -0.70 dB -18.46 dB 4:08 10-Sugar Daddy
DR11 -3.94 dB -17.32 dB 4:24 11-I'm So Afraid

Number of tracks: 11
Official DR value: DR13

Samplerate: 96000 Hz
Channels: 2
Bits per sample: 24
Bitrate: 2683 kbps
Codec: FLAC




Support the artists...
buy it if you like it!

Thanks for Seeding!
Cheers! ;)



Download torrent
838.5 MB
seeders:45
leechers:15
Fleetwood Mac - Fleetwood Mac (1975) (PBTHAL LP 24-96) [FLAC] vtwin88cube


Trackers

tracker name
udp://tracker.openbittorrent.com:80/announce
udp://exodus.desync.com:6969/announce
udp://denis.stalker.upeer.me:6969/announce
udp://tracker.torrent.eu.org:451/announce
udp://tracker.coppersurfer.tk:6969/announce
udp://tracker.internetwarriors.net:1337/announce
udp://explodie.org:6969/announce
udp://tracker.leechers-paradise.org:6969/announce
http://tracker.opentrackr.org:1337/announce
µTorrent compatible trackers list

Download torrent
838.5 MB
seeders:45
leechers:15
Fleetwood Mac - Fleetwood Mac (1975) (PBTHAL LP 24-96) [FLAC] vtwin88cube


Torrent hash: BCBE5DFAECDB70775722330175241545325AF27A