Low.Tide.2019.1080P.Hdrip.X264-Obey[TGx]

seeders: 21
leechers: 11
updated:
Added by 0bey in Movies > HD

Download Fast Safe Anonymous
movies, software, shows...
  • Movie: Low Tide
  • Downloads: 199
  • Language: English
  • Genres: ,
  • Release date: 2019
Summary:

Alan, Red, and Smitty spend high summer on the Jersey Shore roving the boardwalk and getting into trouble. But the discovery of good old fashioned treasure sets the friends on an escalating course of suspicion and violence in this atmospheric thriller.

Files

Low.Tide.2019.1080P.Hdrip.X264-Obey.mkv
  • Low.Tide.2019.1080P.Hdrip.X264-Obey.mkv (1.3 GB)

Description

Make sure your Uploads are provided by Obey


https://torrentgalaxy.org


https://www.imdb.com/title/tt7434324/


Complete name
Low.Tide.2019.1080P.Hdrip.X264-Obey[TGx]
Format : Matroska
Format version : Version 4
File size : 1.31 GiB
Duration : 1 h 23 min
Overall bit rate : 2 245 kb/s
Movie name : Obey
Encoded date : UTC 2019-09-06 05:57:1
Video
ID : 1
Format : AVC
Format/Info : Advanced Video Codec
Format profile : [email protected]
Format settings : CABAC / 4 Ref Frames
Format settings, CABAC : Yes
Format settings, Reference frames : 4 frames
Codec ID : V_MPEG4/ISO/AVC
Duration : 1 h 23 min
Bit rate : 2 082 kb/s
Width : 1 920 pixels
Height : 800 pixels
Display aspect ratio : 2.40:1
Frame rate mode : Constant
Frame rate : 30.000 FPS
Color space : YUV
Chroma subsampling : 4:2:0
Bit depth : 8 bits
Scan type : Progressive
Bits/(Pixel*Frame) : 0.045
Stream size : 1.21 GiB (93%)
Writing library : x264 core 157 r2935 545de2f
Default : Yes
Forced : No
Color range : Limited
Color primaries : BT.709
Transfer characteristics : BT.709
Matrix coefficients : BT.601

Audio
ID : 2
Format : AAC LC
Format/Info : Advanced Audio Codec Low Complexity
Codec ID : A_AAC-2
Duration : 1 h 23 min
Bit rate : 161 kb/s
Channel(s) : 2 channels
Channel layout : L R
Sampling rate : 48.0 kHz
Frame rate : 46.875 FPS (1024 SPF)
Compression mode : Lossy
Delay relative to video : 10 ms
Stream size : 96.0 MiB (7%)
Title : Stereo
Language : English
Default : Yes
Forced : No






















Related Torrents

torrent name size uploader age seed leech
764.6 MB YTSAGx 4
months
595 216
1.3 GB YTSAGx 4
months
504 148
798.4 MB mazemaze16 5
months
472 87
3 GB mazemaze16 5
months
67 14
3 GB EtHD 5
months
36 11


Download torrent
1.3 GB
seeders:21
leechers:11
Low.Tide.2019.1080P.Hdrip.X264-Obey[TGx]


Trackers

tracker name
udp://tracker.coppersurfer.tk:6969/announce
udp://tracker.leechers-paradise.org:6969/announce
udp://exodus.desync.com:6969
udp://tracker.internetwarriors.net:1337/announce
udp://open.stealth.si:80/announce
udp://explodie.org:6969/announce
udp://tracker.opentrackr.org:1337/announce
udp://tracker.tiny-vps.com:6969/announce
udp://open.demonii.si:1337/announce
udp://tracker.torrent.eu.org:451/announce
udp://tracker.pirateparty.gr:6969/announce
udp://ipv4.tracker.harry.lu:80/announce
udp://tracker.cyberia.is:6969/announce
udp://denis.stalker.upeer.me:6969/announce
udp://9.rarbg.to:2790/announce
µTorrent compatible trackers list

Download torrent
1.3 GB
seeders:21
leechers:11
Low.Tide.2019.1080P.Hdrip.X264-Obey[TGx]


Torrent hash: AC41AEF4ECBCDD3F54C0BDD96610812BDB2D1DAD