The Crash 2017 720p BRRip x264 [MW]

seeders: 26
leechers: 14
updated:
Added by moviezworldz in Movies > HD

Download Fast Safe Anonymous
movies, software, shows...
Summary:

In the not so distant future, a team of white collar criminals are enlisted by the Federal government to thwart a cyber-attack that threatens to bankrupt the United States of America.

Files

The Crash 2017 720p BRRip x264 [MW]
  • The Crash 2017 720p BRRip x264 [MW].mkv (851.6 MB)

Description





General
Format : Matroska
Format version : Version 4 / Version 2
File size : 852 MiB
Duration : 1 h 24 min
Overall bit rate : 1 407 kb/s

Video
ID : 1
Format : AVC
Format/Info : Advanced Video Codec
Format profile : [email protected]
Format settings : CABAC / 4 Ref Frames
Format settings, CABAC : Yes
Format settings, RefFrames : 4 frames
Codec ID : V_MPEG4/ISO/AVC
Duration : 1 h 24 min
Bit rate : 1 300 kb/s
Width : 1 280 pixels
Height : 536 pixels
Display aspect ratio : 2.40:1
Frame rate mode : Constant
Frame rate : 23.976 (24000/1001) FPS
Color space : YUV
Chroma subsampling : 4:2:0
Bit depth : 8 bits
Scan type : Progressive
Bits/(Pixel*Frame) : 0.079
Stream size : 774 MiB (91%)
Writing library : x264 core 155 r2901 7d0ff22
Default : Yes
Forced : No

Audio
ID : 2
Format : AAC
Format/Info : Advanced Audio Codec
Format profile : HE-AAC / LC
Format settings : Explicit
Codec ID : A_AAC-2
Duration : 1 h 24 min
Bit rate : 127 kb/s
Channel(s) : 2 channels
Channel positions : Front: L R
Sampling rate : 48.0 kHz / 24.0 kHz
Frame rate : 23.438 FPS (1024 SPF)
Compression mode : Lossy
Stream size : 76.3 MiB (9%)
Language : English
Default : Yes
Forced : No

Menu
00:00:00.000 : en:00:00:00.000
00:06:56.666 : en:00:06:56.666
00:14:34.082 : en:00:14:34.082
00:20:57.673 : en:00:20:57.673
00:29:51.248 : en:00:29:51.248
00:37:17.736 : en:00:37:17.694
00:42:54.113 : en:00:42:54.113
00:51:40.306 : en:00:51:40.306
00:58:30.841 : en:00:58:30.841
01:05:37.851 : en:01:05:37.851
01:12:18.209 : en:01:12:18.084
01:17:32.857 : en:01:17:32.857
01:24:13.006 : en:01:24:13.006





Click To Enlarge Image






Related Torrents

torrent name size uploader age seed leech
724.8 MB YTSAGx 1
year
416 276
1.4 GB YTSAGx 1
year
364 202
651.2 MB amarK 1
year
70 46
3.3 GB EtHD 1
year
21 9
6.6 GB EtHD 1
year
17 14


Download torrent
851.6 MB
seeders:26
leechers:14
The Crash 2017 720p BRRip x264 [MW]


Trackers

tracker name
udp://tracker.coppersurfer.tk:6969/announce
udp://tracker.pirateparty.gr:6969/announce
udp://tracker.coppersurfer.tk:6969/announce
udp://tracker.leechers-paradise.org:6969/announce
udp://eddie4.nl:6969/announce
udp://tracker.tiny-vps.com:6969/announce
udp://9.rarbg.me:2720/announce
udp://9.rarbg.to:2740/announce
udp://public.popcorn-tracker.org:6969/announce
udp://open.stealth.si:80/announce
udp://tracker.vanitycore.co:6969/announce
udp://tracker.opentrackr.org:1337/announce
udp://bt.firebit.co.uk:6969/announce
udp://shadowshq.yi.org:6969/announce
µTorrent compatible trackers list

Download torrent
851.6 MB
seeders:26
leechers:14
The Crash 2017 720p BRRip x264 [MW]


Torrent hash: 5F542D6D3CC5966FC22FE1F172405EA563FEDAFE